IMG_20160218_0003.png

登録情報
CD (2016/2/10)
ディスク枚数: 1
フォーマット: Single, Maxi
レーベル: エイベックス・ピクチャーズ株式会社(Music)
収録時間: 20 分
ASIN: B017NRQ768
EAN: 4562475257755

曲目リスト
ディスク:1
1. white forces
2. 1983-schwarzesmarken-
3. white forces (Instrumental)
4. 1983-schwarzesmarken- (Instrumental)

内容紹介
fripSideがTVアニメ「シュヴァルツェスマーケン」のオープニングテーマを担当!

c/w楽曲にはPCゲーム「シュヴァルツェスマーケン 紅血の紋章」OPテーマ「1983-schwarzesmarken-」を収録! !

DISC-1
1.white forces
2.1983-schwarzesmarken-
3.white forces(Instrumental)
4.1983-schwarzesmarken- (Instrumental)
全2曲4ヴァージョン収録予定

(C)吉宗鋼紀・ixtl/オルタネイティヴ第二計画

メディア掲載レビューほか
fripSideがTVアニメ『シュヴァルツェスマーケン』のオープニングテーマを担当! (C)RS

Ripped & Scaned by yujizmq@astost
转载请注明出处

00:00/00:00

Exact Audio Copy V1.1 from 23. June 2015

EAC extraction logfile from 18. February 2016, 23:11

fripSide / white forces

Used drive : hp DVD-RAM UJ8D1 Adapter: 1 ID: 0

Read mode : Secure
Utilize accurate stream : Yes
Defeat audio cache : Yes
Make use of C2 pointers : No

Read offset correction : 6
Overread into Lead-In and Lead-Out : No
Fill up missing offset samples with silence : Yes
Delete leading and trailing silent blocks : No
Null samples used in CRC calculations : Yes
Used interface : Native Win32 interface for Win NT & 2000

Used output format : Internal WAV Routines
Sample format : 44.100 Hz; 16 Bit; Stereo

TOC of the extracted CD

Track | Start | Length | Start sector | End sector
———————————————————
1 | 0:00.00 | 5:00.64 | 0 | 22563
2 | 5:00.64 | 5:03.24 | 22564 | 45312
3 | 10:04.13 | 5:00.64 | 45313 | 67876
4 | 15:05.02 | 5:00.65 | 67877 | 90441

Range status and errors

Selected range

Filename D:\Entertainment\Music\fripSide – white forces\fripSide – white forces.wav

Peak level 98.8 %
Extraction speed 1.6 X
Range quality 100.0 %
Test CRC 6B7FAB62
Copy CRC 6B7FAB62
Copy OK

No errors occurred

End of status report

—- CUETools DB Plugin V2.1.6

[CTDB TOCID: Nz7sAdpbw0N2rd7zmCZi5ZBWf1c-] found
Submit result: Nz7sAdpbw0N2rd7zmCZi5ZBWf1c- has been confirmed
Track | CTDB Status
1 | (68/68) Accurately ripped
2 | (68/68) Accurately ripped
3 | (68/68) Accurately ripped
4 | (68/68) Accurately ripped

==== Log checksum 7D207564719B894EAB1A5BDDF0A27C923E00414F078CDDF74B46A3479FF5C2AF ====

「white forces」/ fripSide

2016-02-20

TORANOANA

RAR / 227.1MB / 提取:6ifs

关于

如百度分享中没有文件,说明正在上传中....请耐心等待 请用winrar5.0+解压 PW=Password 即为解压密码