登録情報
CD (2015/8/19)
ディスク枚数: 1
フォーマット: Single, CD+DVD, Limited Edition
レーベル: NBCユニバーサル・エンターテイメントジャパン
収録時間: 20 分
ASIN: B00ZTT32SE
EAN: 4988102336400

内容紹介

黒崎真音のニューシングルは、7月より放送開始予定のTVアニメ「がっこうぐらし! 」のエンディングテーマ

今年デビュー5周年を迎え、9月には舞浜アンフィシアターで5周年記念ライブを行う。
さまざまな曲調を歌いこなすことに定評のある黒崎真音の今回の楽曲は、ノスタルジックなミドルテンポのバラード。

1. ハーモナイズ・クローバー
作詞:黒崎真音 作曲:黒須克彦 編曲:黒須克彦、長田直之
2.タイトル未定
3.タイトル未定
4. ハーモナイズ・クローバー
5.2のインスト
6.3のインスト

【初回限定盤特典】
初回限定盤特典
DVD封入
MV、MV Making、SPOT

この商品にはメーカー特典はつきませんのでご了承ください。

メディア掲載レビューほか

黒崎真音のニューシングルは、2015年7月より放映のTVアニメ『がっこうぐらし!』のエンディングテーマを収録したシングル。さまざまな曲調を歌いこなすことに定評のある黒崎真音の今回の楽曲は、ノスタルジックなミドルテンポのバラード。 (C)RS

00:00/00:00

Exact Audio Copy V1.0 beta 3 from 29. August 2011

EAC extraction logfile from 27. August 2015, 17:49

黒崎真音 / ハーモナイズ・クローバー / アフターグロウ

Used drive : MATSHITADVD-R UJ-898 Adapter: 1 ID: 0

Read mode : Secure
Utilize accurate stream : Yes
Defeat audio cache : Yes
Make use of C2 pointers : No

Read offset correction : 102
Overread into Lead-In and Lead-Out : No
Fill up missing offset samples with silence : Yes
Delete leading and trailing silent blocks : No
Null samples used in CRC calculations : Yes
Used interface : Native Win32 interface for Win NT & 2000

Used output format : User Defined Encoder
Selected bitrate : 1024 kBit/s
Quality : High
Add ID3 tag : No
Command line compressor : C:\Program Files (x86)\Exact Audio Copy\Flac\flac.exe
Additional command line options : -8 -V -T “ARTIST=%artist%” -T “ALBUM=%albumtitle%” -T “DATE=%year%” -T “TRACKNUMBER=%tracknr%” -T “GENRE=%genre%” -T “PERFORMER=%albuminterpret%” -T “COMPOSER=%composer%” %haslyrics%–tag-from-file=LYRICS=”%lyricsfile%”%haslyrics% -T “ALBUMARTIST=%albumartist%” -T “DISCNUMBER=%cdnumber%” -T “TOTALDISCS=%totalcds%” -T “TOTALTRACKS=%numtracks%” -T “COMMENT=EAC V1.0 beta 3, Secure Mode, Test & Copy, AccurateRip, FLAC -8” %source% -o %dest%

TOC of the extracted CD

Track | Start | Length | Start sector | End sector
———————————————————
1 | 0:00.00 | 5:29.44 | 0 | 24718
2 | 5:29.44 | 4:25.23 | 24719 | 44616
3 | 9:54.67 | 5:03.61 | 44617 | 67402
4 | 14:58.53 | 5:28.70 | 67403 | 92072
5 | 20:27.48 | 4:25.23 | 92073 | 111970
6 | 24:52.71 | 5:01.58 | 111971 | 134603

Range status and errors

Selected range

Filename C:\EAC\「ハーモナイズ・クローバー/アフターグロウ」\黒崎真音 – 「ハーモナイズ・クローバー/アフターグロウ」.wav

Peak level 100.0 %
Extraction speed 4.0 X
Range quality 100.0 %
Test CRC 06342C47
Copy CRC 06342C47
Copy OK

No errors occurred

AccurateRip summary

Track 1 not present in database
Track 2 not present in database
Track 3 not present in database
Track 4 not present in database
Track 5 not present in database
Track 6 not present in database

None of the tracks are present in the AccurateRip database

End of status report

==== Log checksum 1A6D7F1351AE55C85E2B0FFD928D1CE4FE3B5C8F9C41875ACD8FCB84EB4E35D4 ====

I 17:52:07 DVD Decrypter 版本号: 3.5.4.0 已启动!!
I 17:52:07 Media Center Edition (6.1, Build 7601 : Service Pack 1)
I 17:52:07 正在初始化 SPTI…
I 17:52:07 正在查找 SCSI/ATAPI 设备…
I 17:52:07 已找到1 DVD-ROM 和 1 DVD盧W!
I 17:52:20 操作已经开始!
I 17:52:20 源设备: [1:0:0] MATSHITA DVD-R UJ-898 HC10 (D : ) (ATA)
I 17:52:20 源光盘类型: DVD-ROM
I 17:52:20 源光盘区码: 2
I 17:52:20 源光盘版权保护系统类型: CSS/CPPM
I 17:52:20 源光盘执行标识符: Sonic Scenarist 3.1
I 17:52:20 目标文件: C:\EAC\「ハーモナイズ?クローバー/アフターグロウ」\GNCA_039602.ISO
I 17:52:20 文件分割方式: 自动
I 17:52:20 检测控制错误: 否
I 17:52:20 删除Macrovision保护: 是
E 17:52:24 操作已经失败! —– 持续时间: 00:00:04
E 17:52:24 设备平均读取速度: N/A – 设备最大读取速度: N/A
I 17:52:53 操作已经开始!
I 17:52:53 源设备: [1:0:0] MATSHITA DVD-R UJ-898 HC10 (D : ) (ATA)
I 17:52:53 源光盘类型: DVD-ROM
I 17:52:53 源光盘区码: 2
I 17:52:53 源光盘版权保护系统类型: CSS/CPPM
I 17:52:53 源光盘执行标识符: Sonic Scenarist 3.1
I 17:52:53 目标文件: C:\EAC\GNCA_039602.ISO
I 17:52:53 文件分割方式: 自动
I 17:52:53 检测控制错误: 否
I 17:52:53 删除Macrovision保护: 是
I 17:52:53 正在处理扇区… (LBA: 0 – 478241)
I 17:52:53 发现IFO文件: VIDEO_TS.IFO – (LBA: 277 – 282)
I 17:52:53 发现VOB文件: VIDEO_TS.VOB – (LBA: 283 – 16825) – KEY: DC 23 59 B3 11
I 17:53:07 发现BU文件: VIDEO_TS.BUP – (LBA: 16842 – 16847)
I 17:53:07 发现IFO文件: VTS_01_0.IFO – (LBA: 16848 – 16860)
I 17:53:07 发现VOB文件: VTS_01_0.VOB – (LBA: 16861 – 27357) – KEY: DC 23 59 B3 11
I 17:53:16 发现VOB文件: VTS_01_1.VOB – (LBA: 27358 – 478211) – KEY: DC 23 59 B3 11
I 17:58:32 发现BU文件: VTS_01_0.BUP – (LBA: 478228 – 478240)
I 17:58:32 操作已经成功完成了! – 持续时间: 00:05:39
I 17:58:32 设备平均读取速度: 2,821 KB/s (2.0x) – 设备最大读取速度: 3,862 KB/s (2.8x)
I 18:02:32 关闭请求已被认可
I 18:02:32 正在退出程序…
I 18:02:32 程序正在关闭 SPTI…
I 18:02:32 DVD Decrypter 已关闭!

ハーモナイズ・クローバー

2015-09-04

只影灬随风@KaiSa Project(From JPopsuki)

RAR / 1.82GMB / 提取:piks

关于

如百度分享中没有文件,说明正在上传中....请耐心等待 请用winrar5.0+解压